<?xml version="1.0" standalone="no"?>
<!DOCTYPE svg PUBLIC "-//W3C//DTD SVG 1.1//EN" "http://www.w3.org/Graphics/SVG/1.1/DTD/svg11.dtd" >
<svg xmlns="http://www.w3.org/2000/svg">
<metadata>Generated by IcoMoon</metadata>
<defs>
<font id="icomoon" horiz-adv-x="1024">
<font-face units-per-em="1024" ascent="960" descent="-64" />
<missing-glyph horiz-adv-x="1024" />
<glyph unicode="&#x20;" horiz-adv-x="512" d="" />
<glyph unicode="&#xe900;" glyph-name="data" d="M117.922 584.907c2.922-2.922 6.758-4.391 10.594-4.391s7.672 1.461 10.602 4.391c5.852 5.852 5.852 15.344 0 21.195l-36.391 36.391 36.391 36.383c5.852 5.859 5.852 15.344 0 21.195s-15.344 5.852-21.195 0l-46.985-46.985c-2.813-2.813-4.391-6.625-4.391-10.594 0-3.977 1.578-7.789 4.391-10.602zM266.642 642.493l-36.391-36.391c-5.852-5.852-5.852-15.344 0.008-21.195 2.922-2.922 6.758-4.391 10.594-4.391s7.672 1.469 10.594 4.391l46.992 46.992c5.852 5.852 5.852 15.344 0 21.188l-46.992 46.992c-5.852 5.852-15.336 5.852-21.188 0-5.859-5.859-5.859-15.344 0-21.195zM162.344 581.555c1.797-0.703 3.656-1.039 5.477-1.039 5.984 0 11.633 3.609 13.953 9.508l36.914 93.977c3.031 7.703-0.766 16.399-8.469 19.43-7.695 3.023-16.399-0.766-19.422-8.469l-36.922-93.977c-3.023-7.703 0.766-16.406 8.469-19.43zM90.016 492.594h100.961c8.273 0 14.984 6.711 14.984 14.992 0 8.273-6.711 14.984-14.984 14.984h-100.961c-8.281 0-14.984-6.711-14.984-14.984 0-8.281 6.703-14.992 14.984-14.992zM423.509 522.571h-177.501c-8.273 0-14.984-6.711-14.984-14.984 0-8.281 6.711-14.992 14.984-14.992h177.501c8.281 0 14.992 6.711 14.992 14.992 0 8.273-6.711 14.984-14.992 14.984zM90.016 429.383h43.008c8.273 0 14.984 6.711 14.984 14.992 0 8.273-6.711 14.984-14.984 14.984h-43.008c-8.281 0-14.984-6.711-14.984-14.984 0-8.281 6.703-14.992 14.984-14.992zM368.681 459.359c-8.281 0-14.984-6.711-14.984-14.984 0-8.281 6.703-14.992 14.984-14.992h26.188c8.281 0 14.992 6.711 14.992 14.992 0 8.273-6.711 14.984-14.992 14.984zM329.236 444.375c0 8.273-6.711 14.984-14.984 14.984h-128.641c-8.281 0-14.984-6.711-14.984-14.984 0-8.281 6.703-14.992 14.984-14.992h128.641c8.273 0 14.984 6.711 14.984 14.992zM427.408 444.375c0-8.281 6.711-14.992 14.984-14.992h49.055c8.281 0 14.992 6.711 14.992 14.992 0 8.273-6.711 14.984-14.992 14.984h-49.055c-8.273 0-14.984-6.711-14.984-14.984zM345.79 630.469h51.742c8.281 0 14.992 6.711 14.992 14.992 0 8.273-6.711 14.984-14.992 14.984h-51.742c-8.281 0-14.992-6.711-14.992-14.984 0-8.281 6.711-14.992 14.992-14.992zM455.486 630.469h315.712c8.281 0 14.984 6.711 14.984 14.992 0 8.273-6.703 14.984-14.984 14.984h-315.712c-8.281 0-14.992-6.711-14.992-14.984 0-8.281 6.711-14.992 14.992-14.992zM723.245 594.508h-127.891c-8.273 0-14.984-6.711-14.984-14.992 0-8.273 6.711-14.984 14.984-14.984h127.891c8.273 0 14.984 6.711 14.984 14.984 0 8.281-6.711 14.992-14.984 14.992zM547.401 594.508h-43.961c-8.281 0-14.984-6.711-14.984-14.992 0-8.273 6.703-14.984 14.984-14.984h43.961c8.281 0 14.984 6.711 14.984 14.984 0 8.281-6.703 14.992-14.984 14.992zM345.79 564.532h107.696c8.273 0 14.984 6.711 14.984 14.984 0 8.281-6.711 14.992-14.984 14.992h-107.696c-8.281 0-14.992-6.711-14.992-14.992 0-8.273 6.711-14.984 14.992-14.984zM314.439 396.679h-100.954c-8.281 0-14.992-6.711-14.992-14.984s6.711-14.984 14.992-14.984h100.954c8.273 0 14.984 6.711 14.984 14.984s-6.711 14.984-14.984 14.984zM167.579 396.679h-77.563c-8.281 0-14.984-6.711-14.984-14.984s6.703-14.984 14.984-14.984h77.563c8.281 0 14.984 6.711 14.984 14.984s-6.703 14.984-14.984 14.984zM497.447 396.679h-131.883c-8.281 0-14.984-6.711-14.984-14.984s6.703-14.984 14.984-14.984h131.883c8.273 0 14.984 6.711 14.984 14.984s-6.711 14.984-14.984 14.984zM675.8 473.664h-72.117c-8.273 0-14.984-6.711-14.984-14.984 0-8.281 6.711-14.992 14.984-14.992h72.117c8.281 0 14.984 6.711 14.984 14.992 0 8.273-6.703 14.984-14.984 14.984zM800.941 443.687h101.805c8.281 0 14.992 6.711 14.992 14.992 0 8.273-6.711 14.984-14.992 14.984h-101.805c-8.281 0-14.984-6.711-14.984-14.984 0-8.281 6.711-14.992 14.984-14.992zM750.034 473.664h-23.328c-8.281 0-14.992-6.711-14.992-14.984 0-8.281 6.711-14.992 14.992-14.992h23.328c8.281 0 14.984 6.711 14.984 14.992 0 8.273-6.703 14.984-14.984 14.984zM603.682 280.374h72.117c8.281 0 14.984 6.703 14.984 14.984 0 8.273-6.703 14.984-14.984 14.984h-72.117c-8.273 0-14.984-6.711-14.984-14.984 0-8.281 6.711-14.984 14.984-14.984zM800.941 280.374h101.805c8.281 0 14.992 6.703 14.992 14.984 0 8.273-6.711 14.984-14.992 14.984h-101.805c-8.281 0-14.984-6.711-14.984-14.984 0-8.281 6.711-14.984 14.984-14.984zM726.706 280.374h23.328c8.281 0 14.992 6.703 14.992 14.984 0 8.273-6.711 14.984-14.992 14.984h-23.328c-8.281 0-14.984-6.711-14.984-14.984 0-8.281 6.703-14.984 14.984-14.984zM675.8 147.022h-72.117c-8.273 0-14.984-6.711-14.984-14.984s6.711-14.984 14.984-14.984h72.117c8.281 0 14.984 6.711 14.984 14.984s-6.703 14.984-14.984 14.984zM902.746 147.022h-101.805c-8.281 0-14.984-6.711-14.984-14.984s6.703-14.984 14.984-14.984h101.805c8.281 0 14.992 6.711 14.992 14.984s-6.711 14.984-14.992 14.984zM750.034 147.022h-23.328c-8.281 0-14.992-6.711-14.992-14.984s6.711-14.984 14.992-14.984h23.328c8.281 0 14.984 6.711 14.984 14.984s-6.703 14.984-14.984 14.984zM958.051 958.002h-892.089c-36.367 0-65.961-29.586-65.961-65.961v-725.136c0-36.367 29.594-65.953 65.961-65.953h56.399c8.273 0 14.984 6.703 14.984 14.984 0 8.273-6.711 14.984-14.984 14.984h-56.399c-19.844 0-35.985 16.141-35.985 35.985v56.852h545.994v-25.828h-11.883c-16.258 0-29.477-13.219-29.477-29.477v-37.531h-321.134c-8.273 0-14.984-6.711-14.984-14.984 0-8.281 6.711-14.984 14.984-14.984h144.094v-53.75h-45.25c-30.188 0-54.742-24.563-54.742-54.742v-32.375c0-13.773 11.203-24.977 24.977-24.977h457.752c13.773 0 24.977 11.203 24.977 24.977v32.375c0 30.18-24.555 54.742-54.742 54.742h-45.25v18.945h277.056c16.25 0 29.469 13.219 29.469 29.477v7.055c29.211 6.781 51.047 32.992 51.047 64.227l1.133 725.143c0.008 36.367-29.578 65.953-65.946 65.953zM564.588 259.437v71.836h377.259v-71.836zM605.94 361.25v31.531h294.548v-31.531zM900.488 229.468v-31.539h-294.548v31.539zM387.541 100.952h147.071v-5.336c0-16.25 13.219-29.469 29.477-29.469h71.235v-18.945h-247.782zM710.55 17.225c13.656 0 24.766-11.109 24.766-24.766v-27.383h-447.767v27.383c0 13.656 11.117 24.766 24.774 24.766zM941.847 96.124h-377.259v71.828h377.259zM992.895 166.905c0-14.516-8.656-27.024-21.070-32.703v34.258c0 16.25-13.227 29.469-29.477 29.469h-11.883v25.828h62.43zM992.895 253.726h-21.563c0.305 1.695 0.492 78.047 0.492 78.047 0 16.258-13.227 29.477-29.477 29.477h-11.883v31.531h11.883c16.25 0 29.477 13.227 29.477 29.477v72.836c0 16.25-13.227 29.477-29.477 29.477h-84.649c-8.281 0-14.984-6.711-14.984-14.992 0-8.273 6.703-14.984 14.984-14.984h84.149v-71.836h-377.259v71.836h199.86c8.281 0 14.984 6.711 14.984 14.984 0 8.281-6.703 14.992-14.984 14.992h-200.36c-16.258 0-29.477-13.227-29.477-29.477v-72.836c0-16.25 13.219-29.477 29.477-29.477h11.883v-31.531h-11.883c-16.258 0-29.477-13.227-29.477-29.477 0 0 0.188-76.352 0.492-78.047h-505.127v500.416h962.918zM992.895 784.119h-961.816v107.93c0 19.836 16.141 35.977 35.985 35.977h889.847c19.844 0 35.985-16.141 35.985-35.985zM110.524 900.478c-24.25 0-43.977-19.727-43.977-43.977s19.727-43.985 43.977-43.985 43.985 19.734 43.985 43.985-19.734 43.977-43.985 43.977zM110.524 842.494c-7.719 0-14.008 6.281-14.008 14.008 0 7.719 6.289 14.008 14.008 14.008 7.727 0 14.008-6.289 14.008-14.008 0-7.727-6.281-14.008-14.008-14.008zM222.501 900.478c-24.25 0-43.985-19.727-43.985-43.977s19.734-43.985 43.985-43.985 43.977 19.734 43.977 43.985-19.734 43.977-43.977 43.977zM222.501 842.494c-7.727 0-14.008 6.281-14.008 14.008 0 7.719 6.281 14.008 14.008 14.008 7.719 0 14.008-6.289 14.008-14.008 0-7.727-6.289-14.008-14.008-14.008zM334.47 900.478c-24.25 0-43.977-19.727-43.977-43.977s19.727-43.985 43.977-43.985 43.985 19.734 43.985 43.985-19.734 43.977-43.985 43.977zM334.47 842.494c-7.719 0-14.008 6.281-14.008 14.008 0 7.719 6.289 14.008 14.008 14.008 7.727 0 14.008-6.289 14.008-14.008 0-7.727-6.281-14.008-14.008-14.008z" />
<glyph unicode="&#xe901;" glyph-name="magnifying-glass" d="M1015.031-11.778l-248.848 248.848c66.753 76.743 107.168 176.873 107.168 286.311 0 240.901-195.945 436.619-436.619 436.619-240.901 0-436.619-195.945-436.619-436.619s195.945-436.619 436.619-436.619c109.439 0 209.568 40.415 286.311 107.168l248.848-248.848c5.903-5.903 13.85-9.082 21.57-9.082s15.667 2.952 21.57 9.082c11.807 11.807 11.807 31.333 0 43.14zM61.19 523.381c0 207.071 168.472 375.315 375.315 375.315 207.071 0 375.315-168.472 375.315-375.315s-168.245-375.542-375.315-375.542c-206.843 0-375.315 168.472-375.315 375.542z" />
<glyph unicode="&#xe902;" glyph-name="construction-worker" d="M736 224h-128v37.92c71.362 34.52 121.046 103.852 127.139 185.334l0.045 0.746h16.816c26.51 0 48 21.49 48 48v0 36.448c9.603 5.593 15.963 15.826 16 27.547v64.005c0 17.673-14.327 32-32 32v0h-16c-0.311 118.776-81.281 218.554-191.012 247.471l-1.788 0.401c-3.904 22.859-23.533 40.052-47.192 40.128h-32.008c-23.667-0.076-43.296-17.269-47.16-39.844l-0.040-0.284c-111.519-29.318-192.489-129.096-192.8-247.837v-0.035h-16c-17.673 0-32-14.327-32-32v0-64c0.037-11.726 6.397-21.959 15.848-27.47l0.152-0.082v-36.448c0-26.51 21.49-48 48-48v0h16.816c6.138-82.228 55.822-151.56 125.85-185.497l1.334-0.583v-37.92h-128c-114.82-0.137-207.863-93.18-208-207.987v-48.013c0-8.837 7.163-16 16-16v0h832c8.837 0 16 7.163 16 16v0 48c-0.137 114.82-93.18 207.863-207.987 208h-0.013zM512 112c47.312 0.091 86.594 34.358 94.477 79.424l0.083 0.576h33.44v-112h-256v112h33.44c7.966-45.642 47.248-79.909 94.55-80h0.010zM352 80h-32v112h32zM304 48h416c8.837 0 16-7.163 16-16v0-48h-448v48c0 8.837 7.163 16 16 16v0zM704 80h-32v112h32zM752 480h-16v48h32v-32c0-8.837-7.163-16-16-16v0zM736 656h-32v16c0 26.51-21.49 48-48 48v0h-80v150.72c93.177-28.672 159.773-113.888 160-214.693v-0.027zM656 688c8.837 0 16-7.163 16-16v0-16h-320v16c0 8.837 7.163 16 16 16v0zM496 912h32c8.837 0 16-7.163 16-16v0-176h-64v176c0 8.837 7.163 16 16 16v0zM448 870.72v-150.72h-80c-26.51 0-48-21.49-48-48v0-16h-32c0.227 100.832 66.823 186.048 158.408 214.297l1.592 0.423zM240 624h544v-64h-544zM256 496v32h32v-48h-16c-8.837 0-16 7.163-16 16v0zM320 464v64h384v-64c0-106.039-85.961-192-192-192s-192 85.961-192 192v0zM512 240c22.831 0.016 44.85 3.465 65.578 9.859l-1.578-0.419v-41.44c0-35.346-28.654-64-64-64s-64 28.654-64 64v0 41.44c19.15-5.975 41.169-9.424 63.992-9.44h0.008zM112 16c0.118 97.155 78.845 175.882 175.989 176h0.011v-114.944c-18.741-6.766-31.911-24.361-32-45.045v-48.011h-144zM912-16h-144v48c-0.089 20.695-13.259 38.29-31.666 44.95l-0.334 0.106v114.944c97.155-0.118 175.882-78.845 176-175.989v-0.011z" />
<glyph unicode="&#xe903;" glyph-name="roof" d="M210.254 60.693v122.203c-28.591-23.621-65.233-37.829-105.128-37.829s-76.535 14.208-105.126 37.827v-122.203c0-57.967 47.161-105.128 105.126-105.128 57.969 0.002 105.128 47.161 105.128 105.13zM481.908 182.896c-28.591-23.621-65.231-37.827-105.126-37.827-39.897 0-76.537 14.208-105.128 37.829v-122.203c0-57.967 47.161-105.128 105.128-105.128 57.965 0 105.126 47.161 105.126 105.128zM753.564 182.896c-28.591-23.621-65.233-37.829-105.128-37.829s-76.537 14.208-105.128 37.829v-122.203c0-57.967 47.161-105.128 105.128-105.128s105.128 47.161 105.128 105.128zM1024 60.693v122.203c-28.591-23.621-65.233-37.829-105.128-37.829s-76.535 14.208-105.126 37.827v-122.203c0-57.967 47.161-105.128 105.126-105.128 57.967 0.002 105.128 47.161 105.128 105.13zM0 310.375c0-57.965 47.161-105.126 105.126-105.126 57.967 0 105.128 47.161 105.128 105.126v122.203c-28.591-23.621-65.233-37.829-105.128-37.829s-76.535 14.208-105.126 37.827v-122.201zM376.782 205.247c57.965 0 105.126 47.161 105.126 105.126v122.203c-28.591-23.621-65.231-37.827-105.126-37.827-39.897 0-76.537 14.208-105.128 37.829v-122.203c0-57.967 47.161-105.128 105.128-105.128zM648.436 394.749c-39.897 0-76.537 14.208-105.128 37.829v-122.203c0-57.965 47.161-105.126 105.128-105.126s105.128 47.161 105.128 105.126v122.203c-28.591-23.621-65.231-37.829-105.128-37.829zM918.872 394.749c-39.895 0-76.535 14.208-105.126 37.827v-122.203c0-57.965 47.161-105.126 105.126-105.126 57.967 0 105.128 47.161 105.128 105.126v122.203c-28.591-23.619-65.233-37.827-105.128-37.827zM105.126 454.929c57.967 0 105.128 47.161 105.128 105.128v125.519c-28.591-23.621-65.233-37.829-105.128-37.829s-76.535 14.208-105.126 37.827v-125.519c0-57.965 47.161-105.126 105.126-105.126zM271.654 685.578v-125.519c0-57.967 47.161-105.128 105.128-105.128 57.965 0 105.126 47.161 105.126 105.128v125.519c-28.591-23.621-65.231-37.827-105.126-37.827-39.897-0.002-76.537 14.206-105.128 37.827zM753.564 685.578c-28.591-23.621-65.233-37.829-105.128-37.829s-76.537 14.208-105.128 37.829v-125.519c0-57.967 47.161-105.128 105.128-105.128s105.128 47.161 105.128 105.128zM1024 685.578c-28.591-23.621-65.233-37.829-105.128-37.829s-76.535 14.208-105.126 37.827v-125.519c0-57.967 47.161-105.128 105.126-105.128 57.967 0 105.128 47.161 105.128 105.128zM0 813.057c0-57.965 47.161-105.126 105.126-105.126 57.967 0 105.128 47.161 105.128 105.126v127.381h-210.254zM271.654 813.057c0-57.965 47.161-105.126 105.128-105.126 57.965 0 105.126 47.161 105.126 105.126v127.381h-210.254zM543.308 813.057c0-57.965 47.161-105.126 105.128-105.126s105.128 47.161 105.128 105.126v127.381h-210.256zM813.744 813.057c0-57.965 47.161-105.126 105.126-105.126 57.967 0 105.128 47.161 105.128 105.126v127.381h-210.254z" />
<glyph unicode="&#xe904;" glyph-name="joist" d="M179.264 116.158h314.45v263.868zM0 6.444h1024v-54.858h-1024v54.858zM585.326 456.902l340.746-340.744h24.786v26.992l-337.378 337.376zM92.098 43.016h931.902v36.57h-888.318zM557.21 433.306l-26.924-22.59v-294.558h36.572v307.5zM987.428 116.158h36.572v708.854l-36.572-30.69zM0 85.136v-42.12h35.232l988.768 829.744v71.652zM950.858 763.634l-309.26-259.512 309.26-309.258zM874.358 116.158l-270.93 270.928v-270.928z" />
<glyph unicode="&#xe905;" glyph-name="roof-1" d="M242-4c0-33.134 26.862-60 60-60s60 26.866 60 60v378.688c-17.72-10.334-38.046-16.688-60-16.688s-42.28 6.354-60 16.688zM422 13.472c15.074 13.908 50.83 42.528 90 42.528 39.298 0 74.912-28.532 90-42.492v422c-15.088 13.96-50.702 42.492-90 42.492-39.17 0-74.926-28.62-90-42.528zM602 509.966v422c-24.346 14.854-55.232 28.034-90 28.034s-65.654-13.18-90-28.034v-422c24.346 14.854 55.232 28.034 90 28.034s65.654-13.18 90-28.034zM182 900c0 33.138-26.862 60-60 60-85.694 0-118.63-75.732-119.89-78.956-1.406-3.514-2.11-7.264-2.11-11.044v-381.194c24.942 20.67 70.478 49.194 122 49.194 21.708 0 41.84-5.31 60-12.756zM0 403.022v-377.022c0-14.296 10.136-26.456 24.14-29.268 14.034-2.696 28.096 4.804 33.662 17.958 1.758 4.25 20.546 41.31 64.198 41.31 18.35 0 39.628-6.27 60-14.678v416.902c-16.874 10.508-37.734 19.776-60 19.776-62.516 0-116.166-68.598-122-74.978zM902 960c-33.138 0-60-26.862-60-60v-374.756c18.16 7.446 38.292 12.756 60 12.756 51.522 0 97.058-28.524 122-49.194v381.194c0 3.78-0.704 7.53-2.11 11.044-1.26 3.224-34.196 78.956-119.89 78.956zM902 478c-22.266 0-43.126-9.268-60-19.776v-416.902c20.372 8.408 41.65 14.678 60 14.678 43.652 0 62.44-37.060 64.198-41.308 5.566-13.154 19.628-20.654 33.662-17.958 14.004 2.81 24.14 14.97 24.14 29.266v377.022c-60.44 66.072-92.754 74.978-122 74.978zM662-4c0-33.134 26.862-60 60-60s60 26.866 60 60v378.688c-17.72-10.334-38.046-16.688-60-16.688s-42.28 6.354-60 16.688zM242 478c0-33.134 26.862-60 60-60s60 26.866 60 60v378.688c-17.72-10.334-38.046-16.688-60-16.688s-42.28 6.354-60 16.688zM662 478c0-33.134 26.862-60 60-60s60 26.866 60 60v378.688c-17.72-10.334-38.046-16.688-60-16.688s-42.28 6.354-60 16.688z" />
<glyph unicode="&#xe906;" glyph-name="roof-2" d="M1024 351.578l-243.141 446.422h-780.859l227.195-446.422h20.289v-148.805h-29.766v-29.758h29.766v-76.391h29.758v76.391h29.758v-29.766h624.992v29.766h29.758v-76.391h29.766v254.953zM973.898 381.344h-72.023l-216.102 386.898h77.406zM651.687 768.242l82.594-147.883-142.945 147.883zM549.937 768.242l187-193.453h-304.5l-183.781 193.453zM486.898 500.828l-16.687-26.703 2.039-18.383h-37.922l-131.516 212.281 116.844-122.992h51.031v-15.016zM502.195 455.742l-1.266 11.383 20.508 32.82-20.984 37.781v7.305h148.805v-14.32l13.312-29.953-13.703-27.406 1.953-17.609zM680.766 455.742l-1.352 12.156 16.055 32.117-16.453 37.016v8h17.25l59.195-89.289zM205.711 768.242l212.055-342.258h393.141l-78.937 119.047h44.391l91.43-163.687h-505.187l-202.164 386.898zM48.539 768.242h78.32l202.164-386.898h-83.578zM783.18 277.18v-104.164h-89.281v104.164zM664.133 173.016h-89.281v104.164h89.281zM545.094 173.016h-89.289v104.164h89.289zM426.047 173.016h-89.281v104.164h89.281zM902.227 173.016h-89.281v104.164h89.281zM961.75 202.773h-29.766v104.164h-624.984v-104.164h-29.758v148.805h684.508zM440.93 634.312h29.758v-29.758h-29.758zM634.375 634.312h29.758v-29.758h-29.758zM5.422 496.664v-29.758c42.617 0 77.297 34.672 77.297 77.297 0 42.617-34.68 77.297-77.297 77.297v-29.766c26.211 0 47.531-21.32 47.531-47.531s-21.32-47.539-47.531-47.539zM82.82 351.578h-77.398v-29.758h47.641v-225.195h29.758v76.391h105.133v29.758h-105.133z" />
<glyph unicode="&#xe907;" glyph-name="shield" d="M873.359 835.42l-354.949 88.289c-1.106 0.285-2.376 0.449-3.685 0.449-0.963 0-1.906-0.089-2.82-0.258l0.095 0.015c-0.816 0.154-1.754 0.242-2.714 0.242-1.305 0-2.572-0.163-3.782-0.469l0.106 0.023-354.97-88.289c-6.745-1.719-11.653-7.739-11.653-14.906 0-0.001 0-0.002 0-0.004v0-367.002c-0.001-0.224-0.001-0.488-0.001-0.753 0-76.444 31.094-145.626 81.325-195.587l280.824-280.834c2.78-2.782 6.621-4.502 10.865-4.502s8.085 1.721 10.865 4.502l280.812 280.822c50.243 49.973 81.337 119.155 81.337 195.599 0 0.265 0 0.53-0.001 0.795v-0.041 367.002c0 0.001 0 0.002 0 0.003 0 7.167-4.908 13.187-11.547 14.883l-0.106 0.023zM854.292 453.468c0.001-0.195 0.001-0.426 0.001-0.658 0-67.991-27.653-129.524-72.326-173.965l-269.967-269.926-269.957 269.957c-44.683 44.451-72.336 105.984-72.336 173.975 0 0.231 0 0.463 0.001 0.694v-0.036 355l342.292 85.135 342.292-85.135zM512 782.080c-0.551 0.071-1.188 0.111-1.834 0.111-1.257 0-2.478-0.152-3.646-0.44l0.104 0.022-224.563-55.849c-6.745-1.719-11.653-7.739-11.653-14.906 0-0.001 0-0.002 0-0.004v0-232.141c0-0.135-0.001-0.294-0.001-0.453 0-49.908 20.302-95.075 53.097-127.692l177.631-177.682c2.78-2.782 6.621-4.502 10.865-4.502s8.085 1.721 10.865 4.502l177.623 177.674c32.804 32.625 53.105 77.792 53.105 127.7 0 0.174 0 0.347-0.001 0.521v-0.027 232.1c0 0.001 0 0.002 0 0.003 0 7.167-4.908 13.187-11.547 14.883l-0.106 0.023-224.522 55.849c-1.072 0.266-2.302 0.418-3.568 0.418-0.652 0-1.294-0.040-1.924-0.119l0.075 0.008zM722.944 478.874c0-0.127 0.001-0.277 0.001-0.428 0-41.453-16.86-78.968-44.098-106.062l-166.846-166.754-166.769 166.769c-27.244 27.1-44.104 64.615-44.104 106.068 0 0.15 0 0.301 0.001 0.451v-0.023 220.16l210.872 52.408 210.872-52.449z" />
<glyph unicode="&#xe908;" glyph-name="mission" d="M592 569.371l60.686-60.686c9.044-9.024 21.528-14.603 35.314-14.603s26.27 5.58 35.315 14.604l167.999 167.999c2.895 2.896 4.686 6.896 4.686 11.314s-1.791 8.419-4.686 11.314l-224 224c-2.896 2.894-6.896 4.685-11.314 4.685s-8.418-1.79-11.315-4.685l-116.685-116.685-60.686 60.686c-9.045 9.023-21.528 14.602-35.314 14.602s-26.27-5.579-35.315-14.603l-156.685-156.685-36.686 36.686c-2.896 2.894-6.896 4.685-11.314 4.685s-8.418-1.79-11.315-4.685l-48-48c-2.895-2.896-4.686-6.896-4.686-11.314s1.791-8.419 4.686-11.314l308.686-308.686-20.686-20.686c-2.895-2.896-4.685-6.896-4.686-11.314v0-89.373l-16-15.999-4.686 4.686c-2.896 2.894-6.896 4.685-11.314 4.685s-8.418-1.79-11.315-4.685l-240-240 22.629-22.629 228.686 228.688 153.373-153.373-52.688-52.686 22.629-22.629 64 64c2.895 2.896 4.686 6.896 4.686 11.314s-1.791 8.419-4.686 11.314l-20.686 20.686 89.371 89.371 148.686-148.686c2.896-2.895 6.896-4.686 11.314-4.686s8.419 1.791 11.315 4.686l48 48c2.895 2.896 4.686 6.896 4.686 11.314s-1.791 8.419-4.686 11.314l-148.686 148.686 20.686 20.686c2.895 2.896 4.686 6.896 4.686 11.314s-1.791 8.419-4.686 11.314l-128 128c-2.896 2.894-6.896 4.685-11.314 4.685s-8.418-1.79-11.315-4.685l-1.402-1.402c-2.32 19.456-11.042 36.536-23.966 49.399l-0.003 0.003c-2.896 2.894-6.896 4.685-11.314 4.685s-8.418-1.79-11.315-4.685l-20.685-20.685-25.371 25.371zM668.686 595.314l-16-16c-4.23-4.228-7.702-9.215-10.193-14.739l-0.126-0.313-27.738 27.738 28.686 28.686c3.247 3.247 7.732 5.255 12.686 5.255 9.908 0 17.94-8.032 17.94-17.94 0-4.954-2.008-9.439-5.255-12.686v0zM656 889.373l201.373-201.373-156.688-156.686c-3.247-3.247-7.732-5.255-12.686-5.255-9.908 0-17.94 8.032-17.94 17.94 0 4.954 2.008 9.439 5.255 12.686l16 16c9.036 9.039 14.625 21.524 14.625 35.314s-5.589 26.276-14.625 35.315l-140.685 140.685zM419.314 844.686c3.248 3.242 7.733 5.247 12.686 5.247s9.437-2.005 12.686-5.247v0l191.043-191.041c-5.834-2.622-10.817-6.097-15.042-10.329l-204.687-204.687-201.372 201.37zM192 713.373l25.371-25.373-25.372-25.372-25.372 25.372zM825.373 80l-25.373-25.373-137.371 137.373 25.371 25.371zM592 377.373l105.373-105.373-57.373-57.373-105.373 105.373 20.727 20.727zM542.23 423.604c3.563-6.855 5.652-14.968 5.652-23.568 0-14.338-5.807-27.32-15.198-36.721v0l-32-32c-2.895-2.896-4.686-6.896-4.686-11.314s1.791-8.419 4.686-11.314v0c13.464-13.492 21.79-32.117 21.79-52.686s-8.326-39.193-21.791-52.687l0.001 0.001 22.629-22.629c19.036 19.019 30.883 45.229 31.12 74.206v0.045l62.937-62.937-89.371-89.371-105.371 105.371 20.686 20.686c2.895 2.896 4.685 6.896 4.686 11.314v0 89.373zM489.371 416l-25.371-25.371-25.371 25.371 25.371 25.371z" />
<glyph unicode="&#xe909;" glyph-name="tick" d="M1009.004 809.008c-19.994 19.996-52.41 19.996-72.408 0l-613.408-613.414-235.784 235.784c-19.994 19.996-52.41 19.994-72.408 0-19.996-19.994-19.996-52.41 0-72.406l271.988-271.984c19.988-19.994 52.428-19.98 72.408 0l649.612 649.612c19.996 19.994 19.994 52.412 0 72.408z" />
<glyph unicode="&#xe90a;" glyph-name="phone-call" d="M985.114 158.88l-200.646 200.644c-23.952 23.95-62.916 23.95-86.87 0l-52.176-52.176c-16.348-16.348-21.516-39.69-15.546-60.482l-19.686-19.686c-0.006-0.006-0.010-0.010-0.016-0.016-13.98-13.996-101.046 7.482-206.29 112.726-105.228 105.226-126.712 192.278-112.732 206.284 0 0.004 0.004 0.004 0.004 0.004l19.704 19.702c5.562-1.598 11.302-2.414 17.046-2.414 15.73 0 31.458 5.986 43.436 17.96l52.176 52.176c23.95 23.95 23.95 62.916 0 86.868l-200.646 200.648c-11.6 11.6-27.026 17.988-43.432 17.988-16.41 0-31.83-6.392-43.432-17.988l-52.18-52.18c-16.348-16.348-21.516-39.692-15.546-60.482 0 0-16.688-16.848-17.518-17.912-55.506-61.698-65.92-158.836-29.122-274.974 36.034-113.714 113.714-234.176 218.734-339.19 105.016-105.016 225.478-182.696 339.192-218.734 45.68-14.474 88.414-21.646 127.22-21.646 63.626 0 116.674 19.296 154.7 57.32l10.948 10.948c5.48-1.576 11.204-2.426 17.064-2.426 16.41 0 31.834 6.392 43.432 17.988l52.18 52.18c23.95 23.95 23.95 62.918 0.002 86.87zM179.44 877.686l200.648-200.65-52.148-52.204c0 0-0.010 0.010-0.028 0.028l-200.65 200.646 52.178 52.18zM818.058 36.754c-0.004-0.004-0.006-0.006-0.010-0.010-44.188-44.182-122.292-51.48-219.922-20.54-104.504 33.116-216.13 105.428-314.312 203.612-98.186 98.184-170.498 209.806-203.612 314.312-30.94 97.634-23.642 175.74 20.55 219.934l5.544 5.544 155.714-155.712-14.282-14.282c-0.010-0.010-0.018-0.022-0.030-0.034-59.17-59.244 11.926-192.294 112.756-293.124 75.468-75.468 168.986-134.28 236.102-134.28 22.568 0 42.152 6.65 57.056 21.556 0.006 0.006 0.010 0.010 0.016 0.016l14.266 14.266 155.714-155.712-5.55-5.546zM889.504 63.264l-200.648 200.648 52.176 52.176 200.648-200.644c0 0-52.158-52.198-52.176-52.18zM777.636 713.632c-58.418 58.418-136.084 90.588-218.688 90.586-16.962 0-30.712-13.75-30.712-30.712s13.752-30.712 30.712-30.712c66.2 0.004 128.438-25.78 175.256-72.594 46.812-46.812 72.59-109.050 72.588-175.248 0-16.962 13.75-30.716 30.712-30.716 16.96 0 30.712 13.75 30.712 30.708 0.002 82.608-32.17 160.27-90.58 218.688zM887.79 823.786c-87.846 87.842-204.634 136.218-328.854 136.214-16.962 0-30.712-13.752-30.712-30.712 0-16.962 13.752-30.712 30.712-30.712 107.814 0.004 209.176-41.984 285.418-118.222 76.236-76.236 118.222-177.598 118.22-285.412 0-16.962 13.75-30.712 30.712-30.712 16.96 0 30.712 13.75 30.712 30.708 0.004 124.224-48.372 241.008-136.208 328.848zM667.474 603.48c-29.412 29.412-66.93 44.954-108.512 44.954 0 0-0.010 0-0.012 0-16.962-0.004-30.712-13.752-30.708-30.716 0.004-16.962 13.756-30.712 30.716-30.708 0.004 0 0.006 0 0.010 0 25.288 0 47.186-9.072 65.078-26.962 17.638-17.64 26.962-40.15 26.958-65.088-0.004-16.962 13.75-30.712 30.708-30.716h0.004c16.962 0 30.708 13.75 30.712 30.708 0.002 41.584-15.54 79.112-44.954 108.528z" />
<glyph unicode="&#xe90b;" glyph-name="location" d="M512.096 163.936c-6.512 0-12.64 4.016-15.008 10.48-21.728 59.216-61.328 106.656-103.248 156.88-37.712 45.184-76.704 91.888-101.392 147.904-3.568 8.096 0.112 17.536 8.192 21.088 8.128 3.568 17.552-0.112 21.088-8.192 22.864-51.872 58.72-94.832 96.672-140.304 41.824-50.128 85.072-101.936 108.72-166.352 3.040-8.304-1.2-17.504-9.504-20.528-1.84-0.656-3.696-0.976-5.52-0.976zM512.096 163.936c-1.824 0-3.68 0.32-5.52 0.992-8.304 3.024-12.544 12.24-9.504 20.528 23.648 64.416 66.896 116.24 108.72 166.352 37.952 45.472 73.808 88.416 96.672 140.304 3.568 8.080 12.976 11.744 21.088 8.192 8.080-3.568 11.744-13.008 8.192-21.088-24.688-56.016-63.664-102.72-101.392-147.904-41.92-50.224-81.52-97.664-103.248-156.88-2.368-6.48-8.496-10.496-15.008-10.496zM512.096 447.904c-69.392 0-128 58.608-128 128s58.608 128 128 128 128-58.608 128-128-58.608-128-128-128zM512.096 671.904c-52.032 0-96-43.968-96-96s43.968-96 96-96 96 43.968 96 96-43.968 96-96 96zM717.088 469.664c-2.144 0-4.336 0.432-6.432 1.36-8.080 3.568-11.744 13.008-8.192 21.088 26.656 60.56 22.32 129.008-11.936 187.808-34.256 58.784-91.648 96.32-157.488 102.992-64.464 6.512-129.408-17.952-173.52-65.536-55.568-59.92-70.752-150.432-37.808-225.264 3.568-8.096-0.112-17.536-8.192-21.088-8.176-3.584-17.552 0.128-21.088 8.192-38.016 86.336-20.48 190.8 43.632 259.92 50.912 54.896 125.84 83.040 200.208 75.632 76.16-7.712 142.448-51.008 181.904-118.72 39.472-67.728 44.416-146.768 13.584-216.832-2.656-6-8.512-9.552-14.672-9.552zM512.832 80.064c-54.96 0-121.456 4.048-182.096 25.712-23.888 8.544-96.56 34.544-80.048 87.92 4.592 14.832 16.432 28.224 35.2 39.776 29.632 18.24 62.608 26.736 91.184 33.248 8.56 2.016 17.184-3.392 19.152-12.032 1.968-8.608-3.424-17.184-12.032-19.152-32.368-7.392-58.624-15.2-81.536-29.312-11.808-7.264-19.216-14.88-21.424-22-4.944-15.984 15.328-32.256 60.272-48.336 63.28-22.624 135.216-24.512 190.64-23.68 75.712 1.152 133.984 12.64 178.128 35.104 12.336 6.272 40.096 22.736 31.344 39.968-14.496 28.544-63.952 39.712-96.688 47.12l-4.96 1.12c-8.608 1.952-14 10.528-12.032 19.152 1.952 8.592 10.432 14.096 19.152 12.032l4.88-1.104c38.576-8.704 96.88-21.888 118.176-63.84 15.12-29.808-1.824-60.832-45.376-82.992-48.576-24.72-111.424-37.344-192.128-38.576-6.384-0.064-13.008-0.128-19.808-0.128z" />
<glyph unicode="&#xe90c;" glyph-name="message" d="M1023.218 564.798c-0.002 1.54-0.346 3.866-0.944 5.206-1.574 5.708-5.072 10.922-10.308 14.562l-146.584 101.896v109.232c0 14.48-11.744 26.224-26.224 26.224h-168.638l-143.486 99.756c-8.968 6.242-20.874 6.268-29.87 0.052l-144.412-99.808h-167.9c-14.484 0-26.224-11.744-26.224-26.224v-107.946l-147.296-101.802c-7.246-5.008-11.166-13.014-11.29-21.2-0.008-0.154-0.042-0.3-0.042-0.46l0.782-568.47c0.010-6.954 2.782-13.62 7.704-18.532 4.916-4.902 11.576-7.654 18.52-7.654 0.014 0 0.024 0 0.036 0l970.77 1.334c14.48 0.020 26.208 11.778 26.188 26.26l-0.782 567.574zM865.38 622.584l83.796-58.236-83.796-58.256v116.492zM512.030 868.232l66.62-46.312h-133.624l67.004 46.312zM211.076 769.47h601.856v-299.842l-202.072-140.484-82.388 63.908c-0.128 0.1-0.238 0.162-0.362 0.252-9.208 6.908-22.232 7.162-31.788-0.252l-82.986-64.37-202.26 139.786v301.002zM158.628 623.994v-119.28l-86.292 59.638 86.292 59.642zM52.516 514.266l317.338-219.31-316.698-245.648-0.64 464.958zM103.75 22.182l408.648 316.968 407.182-315.846-815.83-1.122zM654.288 295.458l316.552 220.072 0.64-466.118-317.192 246.046zM689.54 664.574h-355.072c-14.48 0-26.224-11.744-26.224-26.224s11.744-26.224 26.224-26.224h355.072c14.484 0 26.224 11.744 26.224 26.224s-11.74 26.224-26.224 26.224zM689.54 528.21h-355.072c-14.48 0-26.224-11.744-26.224-26.224s11.744-26.224 26.224-26.224h355.072c14.484 0 26.224 11.744 26.224 26.224s-11.74 26.224-26.224 26.224z" />
<glyph unicode="&#xe90d;" glyph-name="approved" d="M610.5 330l-9.002-8.998c-35.136-35.142-78.348-111.11-91.198-172.8-12-55.8-57-101.4-111.6-114.002-16.802-4.2-34.802-5.398-52.204-3.6l-93.196-94.6-222.6 222.602 123.202 124c3 58.198 27 111.6 68.4 153l110.998 110.998v-239.4l-33.6-33.6 42-42c6.052 6.004 244.224 242.308 229.2 227.402 9.45 9.508 25.556 10.87 37.2 0.6 1.198-0.6 1.798-1.202 2.398-2.402 35.404-34.798 35.404-92.398 0.002-127.2zM393.3 960c0-10.884 0-598.798 0-592.734l135 134.004c33.336 33.158 85.954 33.668 120.058 3.106 4.148-6.008 48.75-39.86 48.75-110.772 0-40.166-15.616-77.872-43.974-106.23l-10.782-10.108c-18.864-18.922-43.342-59.118-58.96-97.266h409.908v780zM663.3 647.578l-81.21 81.21 42.422 42.422 38.79-38.79 98.79 98.79 42.422-42.422zM933.3 360h-180v60h180zM933.3 480h-180v60h180z" />
<glyph unicode="&#xe90e;" glyph-name="labour-day" d="M674.29 250.544c0-23.112-18.888-43.274-42-43.402-23.030-0.128-42.46 18.19-42.46 43.178v125.54c0 15.38-11.64 28.28-26.94 29.84-15.3 1.58-29.32-8.68-32.44-23.74-0.14-0.638-14.262-63.086-114.506-63.34-15.958-0.040-29.672-12.342-30.566-28.276-0.972-17.342 12.82-31.724 29.952-31.724 52.6 0 89.36 13.84 114.5 30.38v-38.054c0-48.768 31.846-88.812 76.1-100.426-10.33-36.606 0.444-74.396 26.080-100.060-18.5-18.5-29.96-44.060-29.96-72.22 0-15.060 3.3-29.36 9.16-42.24h-91.040c-50.86 0-81.822 17.448-120.22 37.44-49.8 25.88-106.22 55.24-165.72 55.24h-105.812c-18.538 0-33.568 15.028-33.568 33.568v305.266c0 18.538 15.028 33.568 33.568 33.568h173.312c7.34 0 14.44 2.7 19.94 7.58l102.4 91.060c18.66 11.82 40.18 18.080 62.36 18.080h155.96c17.334 0 31.9-14.024 31.9-31.9zM856.93-11.48v-20.56c0-17.62-14.34-31.96-31.96-31.96h-120.68c-23.304 0-42.24 18.96-42.24 42.24s18.94 42.22 42.24 42.22h120.68c17.62 0 31.96-14.32 31.96-31.94zM880.99 132.98v-20.56c0-17.62-14.32-31.96-31.94-31.96h-144.76c-23.3 0-42.24 18.96-42.24 42.24 0 23.3 18.94 42.24 42.24 42.24h144.76c17.62 0 31.94-14.34 31.94-31.96zM905.070 277.46v-20.56c0-17.62-14.32-31.96-31.94-31.96h-141.8c3.822 15.61 2.96 20.258 2.96 84.46h138.84c17.62 0 31.94-14.32 31.94-31.94zM929.15 421.92v-20.56c0-17.62-14.34-31.96-31.96-31.96h-162.9v84.48h162.9c17.62 0 31.96-14.34 31.96-31.96zM760.36 810c0-62.76-34.76-117.36-86.080-145.7v-92.2c-10.074 3.702-20.696 5.7-31.9 5.7h-127.080v85.66c-52.16 28.1-87.58 83.18-87.58 146.54 0 64.96 37.22 121.2 91.52 148.58 8.88 4.46 19.38-2.14 19.36-12.080v-121.34l55.46-35.56 55.42 35.56v121.34c0 9.94 10.48 16.54 19.38 12.080 54.28-27.38 91.52-83.62 91.5-148.58z" />
<glyph unicode="&#xe90f;" glyph-name="asbestos" d="M903.339 890.225v-708.524c33.646-4.005 54.685-14.471 73.714-23.946 14.461-7.202 27.561-13.717 46.949-17.036v708.516c-33.642 4.007-54.673 14.477-73.7 23.952-14.467 7.202-27.569 13.719-46.963 17.038zM609.462 160.852c2.119-1.038 4.201-2.074 6.26-3.099 20.845-10.38 38.847-19.345 76.956-19.345s56.111 8.964 76.956 19.343c19.025 9.472 40.058 19.935 73.688 23.944v708.526c-19.383-3.319-32.48-9.834-46.937-17.034-24.132-12.015-51.484-25.634-103.707-25.634-38.245 0-63.145 7.306-83.216 15.936zM1024 5.773v74.312c-33.638 4.007-54.675 14.471-73.7 23.944-20.845 10.38-38.847 19.345-76.956 19.345s-56.111-8.964-76.958-19.345c-24.132-12.015-51.484-25.634-103.707-25.634s-79.575 13.619-103.707 25.636c-20.845 10.378-38.847 19.343-76.956 19.343s-56.113-8.964-76.958-19.345c-24.132-12.015-51.484-25.634-103.709-25.634-52.227 0-79.579 13.619-103.713 25.634-20.847 10.38-38.851 19.345-76.964 19.345-38.111 0-56.115-8.964-76.964-19.345-19.027-9.472-40.066-19.937-73.706-23.944v-74.312c19.395 3.317 32.492 9.838 46.957 17.040 24.132 12.015 51.486 25.634 103.713 25.634s79.579-13.619 103.713-25.634c20.847-10.38 38.851-19.345 76.964-19.345 38.109 0 56.113 8.964 76.958 19.345 24.132 12.015 51.484 25.634 103.709 25.634 52.223 0 79.575-13.619 103.707-25.634 20.845-10.38 38.847-19.345 76.956-19.345s56.111 8.964 76.956 19.345c24.132 12.015 51.484 25.634 103.709 25.634 52.223 0 79.575-13.619 103.707-25.636 14.463-7.2 27.557-13.719 46.949-17.038zM474.522 888.719v-708.050c10.955 1.706 23.3 2.719 37.493 2.719 14.167 0 26.494-1.008 37.433-2.709v708.054c-10.254 2.371-22.243 3.797-37.433 3.797-15.22 0-27.227-1.432-37.493-3.811zM227.635 873.187c-14.467 7.204-27.571 13.721-46.969 17.038v-708.526c33.648-4.005 54.689-14.471 73.72-23.946 20.847-10.38 38.851-19.345 76.964-19.345 38.109 0 56.113 8.964 76.958 19.345 2.038 1.016 4.105 2.042 6.203 3.071v702.639c-20.063-8.618-44.951-15.912-83.162-15.912-52.231 0-79.583 13.619-103.715 25.636zM0 849.235v-708.518c19.391 3.317 32.492 9.834 46.957 17.036 19.025 9.472 40.060 19.935 73.692 23.944v708.524c-19.385-3.319-32.484-9.834-46.943-17.034-19.029-9.474-40.062-19.947-73.706-23.952z" />
<glyph unicode="&#xe910;" glyph-name="tick-1" d="M1012.464 808.984c-15.378 15.38-40.316 15.38-55.698 0l-638.421-638.423-251.11 251.112c-15.378 15.382-40.316 15.382-55.698 0-15.38-15.38-15.38-40.316 0-55.698l278.963-278.963c15.374-15.374 40.32-15.378 55.698 0l666.267 666.273c15.38 15.382 15.38 40.318 0 55.698z" />
<glyph unicode="&#xe911;" glyph-name="award" d="M252.967 626.573c0 11.134 9.026 20.162 20.162 20.162s20.162-9.026 20.162-20.162-9.026-20.162-20.162-20.162-20.162 9.028-20.162 20.162zM874.618 356.977l-224.782 20.422-62.485-175.29h111.111c11.132 0 20.16-9.028 20.16-20.16v-60.479h40.32c11.132 0 20.16-9.028 20.16-20.16v-124.991h10.080c11.132 0 20.16-9.028 20.16-20.16s-9.028-20.16-20.16-20.16h-544.315c-11.132 0-20.16 9.028-20.16 20.16s9.028 20.16 20.16 20.16h10.080v124.991c0 11.132 9.028 20.16 20.16 20.16h40.32v60.479c0 11.132 9.028 20.16 20.16 20.16h115.498l-76.771 235.608-234.642 92.251c-12.781 3.738-19.275 24.809-3.205 35.925l48.867 30.179c0.020 0 0.042 0 0.042 0.022 22.454 13.83 43.6-20.503 21.146-34.332l-14.594-9.011 205.993-80.984c5.604-2.218 9.919-6.772 11.793-12.519l83.788-257.139h51.053l72.541 203.556c3.066 8.588 11.715 14.132 20.825 13.305l200.61-18.224-113.56 187.486c-3.185 5.262-3.768 11.834-1.593 17.598l79.492 209.342-208.192-58.002c-6.209-1.714-13.124-0.282-18.122 3.79l-170.411 138.621-13.185-212.666c-0.403-6.532-3.951-12.479-9.515-15.908l-22.541-13.928c-22.859-14.116-44.047 20.196-21.188 34.312l13.648 8.427 14.961 241.394c1.206 14.878 19.349 25.022 32.84 14.394l192.746-156.783 236.555 65.882c17.632 3.786 30.119-11.82 24.252-26.589l-90.155-237.402 129.124-213.23c9.429-12.975-2.276-31.703-19.069-30.506zM379.936 81.151h-84.671v-104.831h84.671zM613.79 81.151h-193.534v-104.831h193.534zM654.11 81.151v-104.831h84.671v104.831zM678.301 161.79h-322.557v-40.32h322.557z" />
<glyph unicode="&#xe912;" glyph-name="roof-3" d="M958.864 917.632c-1.568 4.128-4.688 7.472-8.752 9.136-0.048 0.016-0.064 0.048-0.096 0.064l-66.4 26.992c-0.016 0-0.048 0-0.064 0.016-20.24 8.32-50.656 8.304-70.88-0.048l-53.216-21.984c-12.192-5.024-34.4-5.024-46.592 0l-53.232 21.984c-20.256 8.368-50.784 8.368-71.024 0l-53.2-21.984c-12.192-5.024-34.4-5.024-46.592 0l-53.216 21.984c-20.256 8.368-50.784 8.368-71.024 0l-53.216-21.984c-12.192-5.024-34.4-5.024-46.592 0l-53.248 21.968c-20.192 8.336-50.592 8.368-70.848 0.064-0.032-0.016-0.064 0-0.096-0.016l-66.592-26.976c-0.032-0.016-0.048-0.048-0.096-0.064-1.712-0.704-3.216-1.792-4.576-3.040-1.008-0.912-1.728-2.016-2.464-3.136-0.656-1.008-1.312-1.968-1.744-3.12-0.64-1.712-1.072-3.504-1.072-5.36 0-0.032-0.032-0.064-0.032-0.112v-960.016c0-1.088 0.416-2.064 0.624-3.088 0.192-0.992 0.16-1.968 0.544-2.928 0.016-0.048 0.048-0.064 0.064-0.112 0.096-0.24 0.288-0.416 0.384-0.656 0.72-1.52 1.632-2.864 2.72-4.032 0.368-0.4 0.816-0.736 1.232-1.104 1.008-0.896 2.112-1.632 3.312-2.24 0.512-0.256 1.008-0.512 1.568-0.72 1.776-0.672 3.632-1.12 5.552-1.12 2 0 4.048 0.368 6.016 1.168l0.208 0.080 0.016 0.016 66.368 26.896c0.016 0.016 0.032 0.032 0.064 0.048h0.032c12.192 5.024 34.4 5.024 46.592 0l53.216-21.984c20.256-8.368 50.784-8.368 71.024 0l53.216 21.984c12.192 5.024 34.4 5.024 46.592 0l53.216-21.984c20.256-8.368 50.784-8.368 71.024 0l53.2 21.984c12.192 5.024 34.4 5.024 46.592 0l53.232-21.984c10.128-4.192 22.816-6.288 35.52-6.288s25.392 2.096 35.52 6.288l53.216 21.984c12.192 5.024 34.384 5.040 46.576-0.016 0.016 0 0.032 0 0.064-0.016 0.016 0 0.032-0.016 0.048-0.032l66.192-26.896s0.016 0 0.016-0.016l0.208-0.080c1.968-0.8 4-1.168 6.016-1.168 1.92 0 3.76 0.448 5.552 1.12 0.56 0.208 1.040 0.464 1.584 0.736 1.184 0.592 2.272 1.328 3.264 2.208 0.432 0.368 0.896 0.72 1.28 1.136 1.072 1.168 1.968 2.496 2.688 4 0.112 0.24 0.304 0.416 0.4 0.672 0.016 0.048 0.048 0.080 0.064 0.112 0.432 1.056 0.416 2.16 0.608 3.232 0.192 0.944 0.576 1.792 0.576 2.784v0.192c0 0.016 0 0.048 0 0.064v63.952c0 0.016 0 0.048 0 0.064v223.888c0 0.016 0 0.048 0 0.064v223.888c0 0.016 0 0.048 0 0.064v223.888c0 0.016 0 0.048 0 0.064v223.888c0 0.032-0.016 0.064-0.016 0.096-0.016 1.904-0.448 3.76-1.12 5.536zM883.616 57.808c-0.016 0-0.048 0-0.064 0.016-20.24 8.32-50.656 8.32-70.88-0.048l-53.216-21.984c-2.176-0.912-4.752-1.584-7.456-2.16v191.472c7.072 1.008 13.808 2.656 19.664 5.072l53.216 21.984c12.192 5.024 34.384 5.040 46.576-0.016 0.016 0 0.032 0 0.064-0.016 0.016 0 0.032-0.016 0.048-0.032l56.432-22.912v-189.408zM140.672 57.84c-0.032-0.016-0.064 0-0.096-0.016l-44.576-18.064v189.424l56.608 22.944c0.016 0.016 0.032 0.032 0.064 0.048h0.032c12.192 5.024 34.4 5.024 46.592 0l53.216-21.984c5.792-2.4 12.48-4.032 19.488-5.040v-191.472c-2.624 0.576-5.136 1.248-7.264 2.128l-53.216 21.984c-20.192 8.336-50.592 8.368-70.848 0.048zM152.608 700.032c0.016 0.016 0.032 0.032 0.064 0.048h0.032c12.192 5.024 34.4 5.024 46.592 0l53.216-21.984c5.792-2.4 12.48-4.032 19.488-5.040v-191.472c-2.624 0.576-5.136 1.248-7.264 2.128l-53.216 21.984c-20.192 8.336-50.592 8.368-70.848 0.064-0.032-0.016-0.064 0-0.096-0.016l-44.576-18.080v189.424zM871.472 700.064c0.016 0 0.032 0 0.064-0.016 0.016 0 0.032-0.016 0.048-0.032l56.416-22.928v-189.408l-44.384 18.032c-0.016 0-0.048 0-0.064 0.016-20.24 8.32-50.656 8.32-70.88-0.048l-53.216-21.984c-2.176-0.912-4.752-1.584-7.456-2.16v191.472c7.072 1.008 13.808 2.656 19.664 5.072l53.216 21.984c12.192 5.040 34.4 5.056 46.592 0zM883.616 281.76c-0.016 0.016-0.048 0-0.064 0.016-20.24 8.336-50.656 8.32-70.88-0.048l-53.216-21.984c-2.176-0.896-4.752-1.568-7.456-2.144v191.456c7.072 1.008 13.808 2.656 19.664 5.072l53.216 21.984c12.192 5.024 34.384 5.040 46.576-0.016 0.016-0.016 0.032 0 0.064-0.016 0.016 0 0.032-0.016 0.048-0.032l56.432-22.912v-189.408zM140.672 281.792c-0.032-0.016-0.064 0-0.096-0.016l-44.576-18.064v189.424l56.608 22.944c0.016 0.016 0.032 0.032 0.064 0.048h0.032c12.192 5.024 34.4 5.024 46.592 0l53.216-21.984c5.792-2.384 12.48-4.032 19.488-5.040v-191.472c-2.624 0.576-5.136 1.248-7.264 2.128l-53.216 21.984c-20.192 8.336-50.592 8.352-70.848 0.048zM304 449.072c7.024 1.024 13.728 2.656 19.552 5.056l53.216 21.984c12.192 5.024 34.4 5.024 46.592 0l53.216-21.984c5.776-2.384 12.432-4.016 19.424-5.040v-191.456c-2.608 0.576-5.088 1.232-7.2 2.112l-53.216 21.984c-20.256 8.368-50.784 8.368-71.024 0l-53.216-21.984c-2.144-0.896-4.672-1.568-7.328-2.128v191.456zM528 449.072c7.040 1.008 13.776 2.656 19.616 5.056l53.2 21.984c12.192 5.024 34.4 5.024 46.592 0l53.232-21.984c5.76-2.384 12.4-4.016 19.36-5.024v-191.456c-2.576 0.56-5.040 1.232-7.136 2.096l-53.232 21.984c-20.256 8.368-50.784 8.368-71.024 0l-53.2-21.984c-2.16-0.896-4.704-1.568-7.392-2.144v191.472zM720 481.616c-2.576 0.56-5.040 1.232-7.136 2.096l-53.232 21.984c-20.256 8.368-50.784 8.368-71.024 0l-53.2-21.984c-2.16-0.896-4.704-1.568-7.392-2.144v191.456c7.040 1.008 13.776 2.656 19.616 5.056l53.2 21.984c12.192 5.024 34.4 5.024 46.592 0l53.232-21.984c5.76-2.384 12.4-4.016 19.36-5.024v-191.44zM496 481.6c-2.608 0.576-5.088 1.232-7.2 2.112l-53.216 21.984c-20.256 8.368-50.784 8.368-71.024 0l-53.216-21.984c-2.144-0.896-4.672-1.568-7.328-2.128v191.44c7.024 1.024 13.728 2.656 19.552 5.056l53.216 21.984c12.192 5.024 34.4 5.024 46.592 0l53.216-21.984c5.776-2.384 12.432-4.016 19.424-5.040v-191.44zM304 225.12c7.024 1.024 13.728 2.656 19.552 5.056l53.216 21.984c12.192 5.024 34.4 5.024 46.592 0l53.216-21.984c5.776-2.384 12.432-4.016 19.424-5.040v-191.456c-2.608 0.576-5.088 1.232-7.2 2.112l-53.216 21.984c-20.256 8.368-50.784 8.368-71.024 0l-53.216-21.984c-2.144-0.896-4.672-1.568-7.328-2.128v191.456zM528 225.12c7.040 1.008 13.776 2.656 19.616 5.056l53.2 21.984c12.192 5.024 34.4 5.024 46.592 0l53.232-21.984c5.76-2.384 12.4-4.016 19.36-5.024v-191.456c-2.576 0.56-5.040 1.232-7.136 2.096l-53.232 21.984c-20.256 8.368-50.784 8.368-71.024 0l-53.2-21.984c-2.16-0.896-4.704-1.568-7.392-2.144v191.472zM771.664 902.24l53.216 21.984c12.192 5.024 34.384 5.040 46.576-0.016 0.016-0.016 0.032 0 0.064-0.016 0.016 0 0.032-0.016 0.048-0.032l56.432-22.928v-189.6l-44.384 18.032c-0.016 0.016-0.048 0-0.064 0.016-20.24 8.32-50.656 8.32-70.88-0.048l-53.216-21.984c-2.176-0.896-4.752-1.568-7.456-2.144v191.648c7.072 1.024 13.808 2.656 19.664 5.088zM547.616 902.24l53.2 21.984c12.192 5.024 34.4 5.024 46.592 0l53.232-21.984c5.76-2.4 12.4-4.016 19.36-5.040v-191.648c-2.576 0.56-5.040 1.232-7.136 2.096l-53.232 21.984c-20.256 8.368-50.784 8.368-71.024 0l-53.2-21.984c-2.16-0.896-4.704-1.568-7.392-2.144v191.664c7.024 1.024 13.76 2.656 19.6 5.072zM323.552 902.24l53.216 21.984c12.192 5.024 34.4 5.024 46.592 0l53.216-21.984c5.776-2.4 12.432-4.016 19.424-5.056v-191.648c-2.608 0.576-5.088 1.232-7.2 2.112l-53.216 21.984c-20.256 8.368-50.784 8.368-71.024 0l-53.216-21.984c-2.144-0.896-4.672-1.568-7.328-2.128v191.648c7.008 1.040 13.712 2.656 19.536 5.072zM199.296 924.224l53.216-21.984c5.808-2.4 12.496-4.032 19.488-5.056v-191.664c-2.624 0.576-5.136 1.248-7.264 2.128l-53.216 21.984c-20.192 8.336-50.592 8.352-70.848 0.064-0.032-0.016-0.064 0-0.096-0.016l-44.576-18.048v189.6l56.608 22.944c0.016 0.016 0.032 0.032 0.064 0.048h0.032c12.192 5.024 34.4 5.024 46.592 0zM812.672-6.24l-53.216-21.984c-12.192-5.024-34.4-5.024-46.592 0l-53.232 21.984c-20.256 8.368-50.784 8.368-71.024 0l-53.2-21.984c-12.192-5.024-34.4-5.024-46.592 0l-53.216 21.984c-20.256 8.368-50.784 8.368-71.024 0l-53.216-21.984c-12.192-5.024-34.4-5.024-46.592 0l-53.248 21.984c-20.192 8.336-50.592 8.352-70.848 0.064-0.032-0.016-0.064 0-0.096-0.016l-44.576-18.064v29.488l56.608 22.944c0.016 0.016 0.032 0.032 0.064 0.048h0.032c12.192 5.024 34.4 5.024 46.592 0l53.216-21.984c20.256-8.368 50.784-8.368 71.024 0l53.216 21.984c12.192 5.024 34.4 5.024 46.592 0l53.216-21.984c20.256-8.368 50.784-8.368 71.024 0l53.2 21.984c12.192 5.024 34.4 5.024 46.592 0l53.232-21.984c10.128-4.192 22.816-6.288 35.52-6.288s25.392 2.096 35.52 6.288l53.216 21.984c12.192 5.024 34.384 5.040 46.576-0.016 0.016-0.016 0.032 0 0.064-0.016 0.016 0 0.032-0.016 0.048-0.032l56.448-22.928v-29.472l-44.384 18.032c-0.016 0.016-0.048 0-0.064 0.016-20.24 8.32-50.656 8.32-70.88-0.048z" />
<glyph unicode="&#xe913;" glyph-name="construction-worker-1" d="M866.974 167.362c-12.014 28.010-35.163 50.486-63.515 61.666l-174.502 68.811c-3.795 1.497-6.249 5.098-6.249 9.179v54.225c37.366 28.030 64.429 64.746 80.585 109.388 5.459 15.086 9.661 31.102 12.622 47.96 38.041 1.769 68.448 33.265 68.448 71.736 0 7.812-1.309 15.573-3.785 22.936 11.631 7.91 19.286 21.248 19.286 36.343v3.678c0 24.219-19.702 43.923-43.923 43.923h-10.974v33.197c0 78.623-42.61 150.253-111.437 187.92-1.622 23.252-21.042 41.677-44.699 41.677-14.064 0-26.632-6.518-34.857-16.685-7.671 0.824-15.432 1.245-23.163 1.245h-32.651c-9.155 0-18.373-0.584-27.397-1.738-0.564-0.073-1.114-0.179-1.654-0.31-8.225 9.47-20.339 15.474-33.835 15.474-23.963 0-43.593-18.901-44.767-42.578-0.618-0.264-1.229-0.556-1.821-0.908-64.568-38.474-104.68-109.015-104.68-184.095v-33.197h-14.836c-24.219 0-43.923-19.705-43.923-43.923v-3.678c0-15.563 8.144-29.253 20.387-37.056-2.329-7.143-3.505-14.59-3.505-22.224 0-37.652 29.13-68.609 66.035-71.568 2.921-16.679 7.048-32.534 12.413-47.479 16.113-44.898 43.222-81.805 80.718-109.96v-54.301c0-4.079-2.453-7.683-6.249-9.179l-174.502-68.811c-28.352-11.18-51.501-33.656-63.515-61.668-27.071-63.128-40.799-129.965-40.799-198.653 0-18.035 14.673-32.707 32.707-32.707h506.893c8.346 0 15.108 6.764 15.108 15.108s-6.762 15.108-15.108 15.108h-138.753v37.225h32.135c13.617 0 24.694 11.077 24.694 24.694v37.149c0 13.617-11.077 24.696-24.694 24.696h-32.135v42.584h70.926c32.56 0 59.049 26.489 59.049 59.051v66.611l26.108-10.295v-77.906c0-23.737 8.984-46.31 25.3-63.559l22.853-24.156c5.813-6.144 9.014-14.187 9.014-22.647v-93.446h-14.064c-8.346 0-15.108-6.764-15.108-15.108s6.762-15.108 15.108-15.108h158.808c18.035 0 32.705 14.673 32.705 32.707-0.002 68.69-13.728 135.528-40.801 198.655zM431.507 342.084c25.167-12.954 52.851-19.457 80.544-19.457 27.657 0 55.302 6.486 80.442 19.404v-34.152c-0.264-0.284-0.526-0.568-0.772-0.876l-8.202-10.338c-17.422-21.955-43.49-34.546-71.52-34.546-28.026 0-54.096 12.592-71.518 34.546l-8.335 10.503c-0.203 0.256-0.423 0.487-0.639 0.727zM719.845 549.404c1.487 17.958 1.704 36.738 0.639 56.281h30.735c1.938-4.859 2.929-10.003 2.929-15.358 0-20.446-14.838-37.457-34.303-40.924zM714.753 730.405v-33.197h-81.098v185.724c50.474-33.998 81.098-90.755 81.098-152.528zM574.223 697.208v215.954c0 8.055 6.553 14.608 14.608 14.608s14.608-6.553 14.608-14.608v-215.954zM498.16 914.344h32.651c4.397 0 8.807-0.157 13.196-0.467v-216.669h-63.91v215.954c0 0.101-0.006 0.199-0.008 0.3 5.989 0.582 12.044 0.882 18.071 0.882zM314.221 730.405c0 58.995 28.85 114.714 76.23 149.087v-64.164c0-8.343 6.764-15.108 15.108-15.108s15.108 6.764 15.108 15.108v97.834c0 8.055 6.553 14.608 14.61 14.608 8.053 0 14.608-6.553 14.608-14.608v-215.954h-29.216v57.691c0 8.343-6.764 15.108-15.108 15.108s-15.108-6.764-15.108-15.108v-57.691h-76.232zM255.462 653.285c0 7.558 6.15 13.708 13.708 13.708h486.773c7.558 0 13.708-6.15 13.708-13.708v-3.678c0-7.558-6.15-13.708-13.708-13.708h-486.773c-7.558 0-13.708 6.15-13.708 13.708zM272.344 590.328c0 5.33 1.035 10.479 2.979 15.358h28.29c-1.058-19.356-0.846-37.963 0.602-55.766-18.254 4.401-31.871 20.824-31.871 40.408zM333.889 605.685h356.323c6.261-106.711-27.45-184.222-100.303-230.389-47.295-29.974-108.419-29.972-155.714 0-72.864 46.175-106.572 123.68-100.305 230.389zM146.442-31.293c0 64.57 12.904 127.4 38.353 186.746 8.855 20.651 25.925 37.223 46.828 45.466l89.081 35.126v-66.021c0-15.984-6.049-31.182-17.033-42.795l-22.849-24.156c-11.143-11.78-17.281-27.196-17.281-43.412v-93.446h-114.605c-1.376 0-2.494 1.118-2.494 2.492zM543.689 33.656h-116.096v26.108h116.096zM422.072 89.98c-13.617 0-24.694-11.079-24.694-24.696v-37.149c0-13.617 11.077-24.694 24.694-24.694h64.788v-37.225h-193.105v93.446c0 8.458 3.201 16.502 9.016 22.647l22.849 24.156c16.314 17.245 25.3 39.818 25.3 63.559 0 0-0.028 77.607-0.046 77.918l26.157 10.314v-66.641c0-32.56 26.489-59.051 59.049-59.051h50.78v-42.584zM588.001 162.779h-151.921c-15.899 0-28.834 12.934-28.834 28.836v78.605c3.894 1.67 7.415 3.892 10.497 6.559 23.181-28.523 57.438-44.876 94.258-44.876 36.823 0 71.081 16.353 94.262 44.876 3.102-2.685 6.649-4.919 10.573-6.593v-78.57c-0.002-15.899-12.938-28.836-28.836-28.836zM875.068-33.785h-114.527v93.446c0 16.216-6.136 31.634-17.279 43.412l-22.851 24.156c-10.986 11.613-17.035 26.811-17.035 42.795v65.991l89.003-35.096c20.903-8.243 37.973-24.815 46.83-45.466 25.447-59.343 38.351-122.173 38.351-186.746-0.002-1.374-1.12-2.492-2.492-2.492z" />
<glyph unicode="&#xe914;" glyph-name="support" d="M962.858 294.216c-52.674 52.714-125.764 75.046-219.63 49.89l-334.716 335.056 4.424 16.728c19.278 72.332-1.552 150.082-54.344 202.874-53.752 53.794-130.168 73.532-202.438 53.68-10.306-2.83-18.328-10.928-21.058-21.262s0.264-21.318 7.818-28.876l80.594-80.594c23.562-23.62 23.332-61.448 0.058-84.784-23.090-23.152-61.902-23.116-84.9-0.058l-80.61 80.616c-7.558 7.562-18.574 10.528-28.908 7.782-10.336-2.744-18.404-10.786-21.224-21.102-19.562-71.476-0.318-148.366 53.692-202.376 52.652-52.69 125.65-75.102 219.572-49.892l334.742-335.056c-24.98-93.838-3.432-166.22 49.95-219.602 53.82-53.86 130.272-73.452 202.384-53.666 10.308 2.828 18.332 10.928 21.064 21.262s-0.26 21.32-7.818 28.88l-80.576 80.576c-23.562 23.62-23.332 61.452-0.058 84.784 23.378 23.258 62.104 22.888 84.9 0.030l80.616-80.594c7.558-7.558 18.574-10.524 28.906-7.778 10.334 2.746 18.402 10.784 21.222 21.098 19.562 71.464 0.322 148.374-53.662 202.384zM321.102 426.832l-285.984-286.020c-46.802-46.802-46.802-122.91 0-169.71 46.802-46.802 122.91-46.802 169.71 0l285.978 286.012-169.704 169.718zM176.644 64.204c-11.72-11.72-30.7-11.72-42.42 0-11.718 11.718-11.718 30.702 0 42.42l181.96 181.994c11.718 11.718 30.704 11.718 42.42 0 11.718-11.718 11.718-30.702 0-42.42l-181.96-181.994zM1015.192 899.494l-51.718 51.718c-9.734 9.734-24.84 11.594-36.644 4.516l-159.094-95.446c-16.74-10.042-19.582-33.136-5.782-46.938l12.664-12.66-201.96-201.134 84.87-84.87 201.96 201.134 17.838-17.842c13.802-13.798 36.898-10.958 46.938 5.782l95.446 159.094c7.076 11.806 5.216 26.912-4.518 36.646z" />
<glyph unicode="&#xe915;" glyph-name="analysis" d="M484.228 661.019l149.23 151.298c5.498 5.574 13.001 8.712 20.83 8.712h355.084c8.079 0 14.629-6.549 14.629-14.629v-29.257c0-8.079-6.549-14.629-14.629-14.629h-342.847l-140.007-141.947 170.654-163.235c5.829-5.576 6.045-14.818 0.481-20.66l-20.176-21.185c-5.572-5.85-14.831-6.076-20.682-0.504l-0.024 0.023-305.686 292.476-305.686-292.476c-5.838-5.585-15.098-5.381-20.683 0.457l-0.023 0.024-20.176 21.185c-5.563 5.841-5.348 15.084 0.481 20.66l141.286 135.143v170.038c0 8.079 6.549 14.629 14.629 14.629h29.257c8.079 0 14.629-6.549 14.629-14.629v-114.068l126.108 120.625c11.299 10.761 29.055 10.761 40.355 0zM380.481 555.835c-4.717 1.227-9.666 1.879-14.767 1.879-32.317 0-58.514-26.198-58.514-58.514s26.198-58.514 58.514-58.514 58.514 26.198 58.514 58.514c0 5.382-0.727 10.595-2.087 15.545l42.897 43.491 149.362-142.549v-311.459c0-16.158-13.099-29.257-29.257-29.257h-468.114c-16.158 0-29.257 13.099-29.257 29.257v311.46l263.314 251.303 71.617-68.35zM746.057 645.486v29.257c0 8.079 6.549 14.629 14.629 14.629h248.686c8.079 0 14.629-6.549 14.629-14.629v-29.257c0-8.079-6.549-14.629-14.629-14.629h-248.686c-8.079 0-14.629 6.549-14.629 14.629zM746.057 513.829v29.257c0 8.079 6.549 14.629 14.629 14.629h248.686c8.079 0 14.629-6.549 14.629-14.629v-29.257c0-8.079-6.549-14.629-14.629-14.629h-248.686c-8.079 0-14.629 6.549-14.629 14.629z" />
<glyph unicode="&#xe916;" glyph-name="asbestos-1" d="M779.984 26.942c-39.528-41.22-110.84-41.218-150.37 0.002-64.85 64.852-170.374 64.852-235.23-0.002-39.528-41.222-110.842-41.218-150.37 0.002-64.852 64.854-170.374 64.854-235.226 0-11.716-11.716-11.716-30.71 0-42.426 11.714-11.716 30.71-11.716 42.426 0 39.524 41.204 110.848 41.204 150.37 0.002 61.856-64.504 173.376-64.502 235.23-0.002 41.458 41.458 108.916 41.458 150.372 0.002 61.858-64.504 173.376-64.502 235.23-0.002 39.528 41.206 110.848 41.204 150.374 0 11.714-11.716 30.71-11.716 42.426 0s11.716 30.71 0 42.426c-64.854 64.854-170.378 64.854-235.232-0.002zM319.2 55.822c12.57 0 23.894 4.682 32.75 13.54 6.864 6.864 14.1 13.226 21.65 19.082v806.504c-40.808-24.292-94.5-18.906-129.584 16.174-8.376 8.378-17.51 15.718-27.216 22.028v-816.246c25.672-11.168 49.268-27.162 69.64-47.534 8.862-8.864 20.188-13.548 32.76-13.548zM156.8 133.562v823.468c-53.53 10.096-109.962-7.238-148.21-46.102-5.548-5.566-8.59-13.158-8.59-21.016v-792.78c44.952 30.676 102.070 43.924 156.8 36.43zM704.8 55.822c12.57 0 23.896 4.682 32.75 13.54 20.376 20.376 43.976 36.372 69.65 47.542v816.246c-9.708-6.31-18.84-13.65-27.216-22.028-35.084-35.078-88.776-40.464-129.584-16.174v-806.504c7.548-5.854 14.78-12.212 21.64-19.074 8.864-8.864 20.19-13.548 32.76-13.548zM590.4 121.714v818.576c-47.2 25.928-109.602 25.928-156.8 0v-818.578c49.174 18.432 107.628 18.432 156.8 0.002zM1015.41 910.928c-38.24 38.862-94.688 56.2-148.21 46.102v-823.468c54.736 7.494 111.84-5.752 156.8-36.43v792.78c0 7.858-3.042 15.45-8.59 21.016z" />
<glyph unicode="&#xe917;" glyph-name="roof-4" d="M434 882v-844c0 43.078 34.922 78 78 78s78-34.922 78-78v844c0 43.078-34.922 78-78 78s-78-34.922-78-78zM122 116c13.773 0 25.875-5.438 36-13.234v779.234c0 43.078-34.922 78-78 78s-80-34.922-80-78v-826h60c0 33.141 28.859 60 62 60zM944 960c-43.078 0-78-34.922-78-78v-779.242c10.125 7.805 22.227 13.242 36 13.242 33.141 0 60-26.859 60-60h62v826c0 43.078-36.922 78-80 78zM296-64c43.078 0 78 34.922 78 78v844c0-43.078-34.922-78-78-78s-78 34.922-78 78v-844c0-43.078 34.922-78 78-78zM806 14v844c0-43.078-34.922-78-78-78s-78 34.922-78 78v-844c0-43.078 34.922-78 78-78 43.070 0 78 34.922 78 78z" />
<glyph unicode="&#xe918;" glyph-name="right-arrow" d="M1012.268 476.314c-0.012 0.012-0.022 0.026-0.036 0.038l-209.008 208c-15.658 15.582-40.984 15.524-56.57-0.136-15.584-15.658-15.524-40.984 0.134-56.568l140.328-139.648h-847.116c-22.092 0-40-17.908-40-40s17.908-40 40-40h847.114l-140.324-139.648c-15.658-15.584-15.718-40.91-0.134-56.568 15.586-15.662 40.914-15.716 56.57-0.136l209.008 208c0.012 0.012 0.022 0.026 0.036 0.038 15.666 15.636 15.616 41.044-0.002 56.628z" />
<glyph unicode="&#xe919;" glyph-name="left-arrow" d="M11.732 419.686c0.012-0.012 0.022-0.026 0.036-0.038l209.008-208c15.658-15.582 40.984-15.524 56.57 0.136 15.584 15.658 15.524 40.984-0.134 56.568l-140.328 139.648h847.116c22.092 0 40 17.908 40 40s-17.908 40-40 40h-847.114l140.324 139.648c15.658 15.584 15.718 40.91 0.134 56.568-15.586 15.662-40.914 15.716-56.57 0.136l-209.008-208c-0.012-0.012-0.022-0.026-0.036-0.038-15.666-15.636-15.616-41.044 0.002-56.628z" />
<glyph unicode="&#xe91a;" glyph-name="top-arrow" d="M483.686 948.268c-0.012-0.012-0.026-0.022-0.038-0.036l-208-209.008c-15.582-15.658-15.524-40.984 0.136-56.57 15.658-15.584 40.984-15.524 56.568 0.134l139.648 140.328v-847.116c0-22.092 17.908-40 40-40s40 17.908 40 40v847.114l139.648-140.324c15.584-15.658 40.91-15.718 56.568-0.134 15.662 15.586 15.716 40.914 0.136 56.57l-208 209.008c-0.012 0.012-0.026 0.022-0.038 0.036-15.636 15.666-41.044 15.616-56.628-0.002z" />
<glyph unicode="&#xe91b;" glyph-name="bottom-arrow" d="M540.314-52.268c0.012 0.012 0.026 0.022 0.038 0.036l208 209.008c15.582 15.658 15.524 40.984-0.136 56.57-15.658 15.584-40.984 15.524-56.568-0.134l-139.648-140.328v847.116c0 22.092-17.908 40-40 40s-40-17.908-40-40v-847.114l-139.648 140.324c-15.584 15.658-40.91 15.718-56.568 0.134-15.662-15.586-15.716-40.914-0.136-56.57l208-209.008c0.012-0.012 0.026-0.022 0.038-0.036 15.636-15.666 41.044-15.616 56.628 0.002z" />
<glyph unicode="&#xe91c;" glyph-name="roof-5" d="M311.033 836.732l-308.495-290.957 22.184-23.524 286.265 269.989 286.285-271.093 22.234 23.48zM707.941 478.869l-308.497-290.957 22.186-23.524 30.562 28.826v-224.876h-366.345v53.894h337.383v32.336h-337.383v39.522h337.383v32.336h-337.383v39.522h294.267v32.336h-294.267v39.522h294.267v32.336h-294.267v225.162l225.144 210.782 230.52-216.466 22.136 23.574-252.624 237.222-308.441-288.453 22.088-23.618 28.838 26.968v-529.315h910.13v256.201l30.536-28.916 22.234 23.48-308.469 292.105zM773.548-31.664h-140.126v213.422h140.126v-213.422zM931.306-31.664h-125.42v245.76h-204.8v-245.76h-116.554v255.374l223.362 210.666 223.412-211.556v-254.484zM707.941 565.101l-308.497-290.957 22.186-23.524 286.263 269.989 286.285-271.093 22.238 23.48zM202.26 537.465v-97.010h97.010v97.010h-97.010zM266.935 472.791h-32.336v32.336h32.336v-32.336zM320.831 537.465v-97.010h97.010v97.010h-97.010zM385.505 472.791h-32.336v32.336h32.336v-32.336zM202.26 416.741v-97.010h97.010v97.010h-97.010zM266.935 352.067h-32.336v32.336h32.336v-32.336zM320.831 416.741v-97.010h97.010v97.010h-97.010zM385.505 352.067h-32.336v32.336h32.336v-32.336zM617.247 278.769h32.336v-32.336h-32.336v32.336zM746.595 278.769h32.336v-32.336h-32.336v32.336zM681.921 278.769h32.336v-32.336h-32.336v32.336zM805.704 958.064l4.616-32.008c9.742 1.406 19.834 1.892 29.698 1.446l1.466 32.302c-11.89 0.542-24.028-0.046-35.78-1.74zM897.82 629.179c-8.996-4.122-18.432-7.39-28.044-9.718l7.612-31.428c11.618 2.814 23.022 6.764 33.898 11.744l-13.466 29.402zM989.128 771.744v-0.372c0-9.954-0.94-19.908-2.794-29.59l31.76-6.082c2.236 11.68 3.37 23.684 3.37 35.672v0.372h-32.336zM991.338 873.682l-27.154-17.562c5.382-8.324 9.986-17.19 13.68-26.356l29.992 12.084c-4.462 11.074-10.018 21.784-16.518 31.834zM964.364 686.899c-5.354-8.324-11.542-16.18-18.38-23.354l23.402-22.316c8.25 8.654 15.71 18.13 22.17 28.172l-27.192 17.498zM910.912 943.132l-13.398-29.43c8.996-4.094 17.656-9.084 25.742-14.83l18.73 26.362c-9.758 6.93-20.214 12.952-31.074 17.898zM738.255 934.612c-10.32-5.99-20.128-13.010-29.152-20.858l21.222-24.4c7.482 6.506 15.614 12.324 24.166 17.29l-16.236 27.968zM665.031 857.616c-5.478-10.636-9.954-21.848-13.302-33.322l31.044-9.056c2.77 9.492 6.474 18.768 11.008 27.572l-28.75 14.806zM677.251 756.328l-32.19-3.074c1.138-11.922 3.422-23.768 6.786-35.21l31.024 9.128c-2.788 9.47-4.678 19.28-5.62 29.156zM710.051 674.651l-25.394-20.020c7.39-9.372 15.718-18.092 24.758-25.916l21.166 24.446c-7.496 6.488-14.404 13.72-20.53 21.49zM781.8 623.589l-10.552-30.568c11.292-3.898 23.026-6.726 34.872-8.408l4.542 32.018c-9.808 1.392-19.518 3.734-28.862 6.958zM832.832 873.77c-56.462 0-102.4-45.938-102.4-102.4s45.938-102.4 102.4-102.4 102.4 45.938 102.4 102.4c0 56.462-45.936 102.4-102.4 102.4zM832.832 701.307c-38.634 0-70.064 31.432-70.064 70.064s31.43 70.064 70.064 70.064 70.064-31.432 70.064-70.064-31.43-70.064-70.064-70.064zM730.427 103.070h32.336v-32.336h-32.336v32.336z" />
<glyph unicode="&#xe91d;" glyph-name="confirmation" d="M734.165 584.832c-16.64 16.661-43.691 16.661-60.331 0l-183.168-183.147-76.501 76.48c-16.64 16.661-43.691 16.661-60.331 0-16.661-16.661-16.661-43.669 0-60.331l106.667-106.667c8.32-8.341 19.243-12.501 30.165-12.501s21.845 4.16 30.165 12.501l213.333 213.333c16.661 16.661 16.661 43.669 0 60.331zM981.333 490.667c-23.552 0-42.667-19.115-42.667-42.667 0-235.264-191.403-426.667-426.667-426.667s-426.667 191.403-426.667 426.667 191.403 426.667 426.667 426.667c114.539 0 222.059-44.757 302.784-126.037 16.576-16.747 43.605-16.832 60.331-0.213 16.725 16.597 16.811 43.605 0.213 60.331-96.853 97.536-225.899 151.253-363.328 151.253-282.325 0-512-229.675-512-512s229.675-512 512-512 512 229.675 512 512c0 23.552-19.115 42.667-42.667 42.667z" />
<glyph unicode="&#xe91e;" glyph-name="online-registration" d="M496 240h-128c-17.648 0-32-14.352-32-32 0-35.296 28.704-64 64-64h64c35.296 0 64 28.704 64 64 0 17.648-14.352 32-32 32zM464 176h-64c-17.648 0-32 14.352-32 32h128c0-17.648-14.352-32-32-32zM688 864c0-8.837-7.163-16-16-16s-16 7.163-16 16c0 8.837 7.163 16 16 16s16-7.163 16-16zM624 864c0-8.837-7.163-16-16-16s-16 7.163-16 16c0 8.837 7.163 16 16 16s16-7.163 16-16zM368 880h128v-32h-128zM945.488 650.88l41.248 41.248c13.712 13.696 21.264 31.936 21.264 51.312 0 40.016-32.56 72.56-72.576 72.56-19.392 0-37.616-7.552-51.312-21.248l-74.736-74.752h-49.616c-2.608 0-5.184-0.208-7.76-0.384v144.384c0 44.112-35.888 80-80 80h-480c-44.112 0-80-35.888-80-80v-377.376l-44.16-44.176c-33.44-33.424-51.84-77.856-51.84-125.12 0-9.696 0.816-19.488 2.4-29.088l24.896-149.312c3.456-20.768 9.168-41.184 16.976-60.672l19.728-49.344v-76.912h224v76.912l11.040 27.6c3.088 7.728 5.712 15.584 8.128 23.488h348.832c44.112 0 80 35.888 80 80v297.376l6.48 6.48 14.688-8.816c25.104-15.072 53.888-23.040 83.2-23.040 17.392 0 34.592 2.8 51.12 8.32l71.104 23.68h29.408v160h-26.672zM906.736 772.128c7.664 7.648 17.856 11.872 28.688 11.872 22.368 0 40.576-18.208 40.576-40.56 0-10.832-4.224-21.008-11.888-28.688l-149.296-149.312-38.256 30.608c-8.784 7.024-18.448 12.768-28.672 17.216zM777.376 688l-65.056-65.056c-5.12 0.624-10.272 1.056-15.456 1.056-31.36 0-56.864-25.504-56.864-56.864 0-4.976 0.672-9.872 1.936-14.592l-20.016-20.016c-8.432 5.248-13.92 14.432-13.92 24.736 0 7.696 3.12 15.232 8.576 20.688l86.624 86.624c15.104 15.104 35.184 23.424 56.56 23.424zM144 864c0 26.464 21.536 48 48 48h480c26.464 0 48-21.536 48-48v-151.344c-11.552-4.384-22.368-10.624-32-18.704v90.048c0 17.648-14.352 32-32 32h-448c-17.648 0-32-14.352-32-32v-480c0-12.8 7.616-23.808 18.512-28.912-6.896-20.368-15.008-40.32-24.624-59.52-2.32-4.672-7.008-7.568-12.224-7.568-7.536 0-13.664 6.144-13.664 13.664zM272-16h-160v32h160zM285.328 68.384l-8.16-20.384h-170.336l-16.864 42.144c-6.944 17.36-12.032 35.536-15.12 54.032l-24.896 149.312c-1.28 7.872-1.952 15.888-1.952 23.84 0 38.72 15.072 75.104 42.464 102.496l21.536 21.552v-219.696c0-25.2 20.48-45.68 45.664-45.68 17.408 0 33.056 9.664 40.848 25.248 16.32 32.624 29.056 67.104 37.92 102.496l12 47.968c2.384 9.584 10.96 16.288 20.848 16.288 11.168 0 20.592-8.72 21.44-19.856l12.528-162.752c0.496-6.656 0.752-13.344 0.752-20.032 0-33.36-6.288-65.984-18.672-96.976zM269.28 400c-24.592 0-45.936-16.672-51.904-40.528l-9.376-37.504v462.032h448v-121.376l-62.048-62.048c-11.584-11.568-17.952-26.928-17.952-43.312 0-18.992 8.896-36.24 23.024-47.616l-36.672-36.672-31.296-78.224c-2.032-5.088-3.056-10.432-3.056-15.92 0-23.616 19.216-42.832 42.832-42.832 5.456 0 10.8 1.024 15.904 3.056l69.264 27.712v-62.768h-329.792l-3.584 46.592c-2.128 27.712-25.568 49.408-53.344 49.408zM581.84 435.536l45.68-45.68-52.656-21.072c-6.944-2.784-14.864 2.704-14.864 10.048 0 1.392 0.256 2.736 0.784 4.032zM720 160c0-26.464-21.536-48-48-48h-340.976c3.248 17.52 4.976 35.344 4.976 53.36 0 7.504-0.288 15.008-0.864 22.48l-6.464 84.16h327.328c17.648 0 32 14.352 32 32v89.376l32 32zM656 406.624l-57.376 57.376 60.656 60.64c2.592-2.304 5.312-4.464 8.336-6.272l62.592-37.552zM976 496h-2.592l-76.032-25.344c-35.616-11.888-75.664-7.456-107.728 11.824l-105.552 63.328c-7.472 4.48-12.096 12.64-12.096 21.328 0 13.712 11.152 24.864 24.864 24.864 21.616 0 42.816-7.44 59.696-20.96l53.824-43.040h85.616v32h-41.376l68.016 68.016 48.032-36.016h5.328zM624 752h-384v-96h384zM592 688h-320v32h320zM336 624h208v-32h-208zM512 560h32v-32h-32zM336 560h144v-32h-144zM336 496h208v-32h-208zM336 432h176v-32h-176zM336 368h176v-32h-176z" />
<glyph unicode="&#xe91f;" glyph-name="pin" d="M512 960c-211.75 0-384-172.27-384-384 0-283.292 354.292-620 369.376-634.208 4.124-3.854 9.374-5.792 14.624-5.792s10.5 1.938 14.626 5.792c15.082 14.208 369.374 350.916 369.374 634.208 0 211.73-172.25 384-384 384zM512 362.666c-117.626 0-213.334 95.708-213.334 213.334s95.71 213.334 213.334 213.334 213.334-95.71 213.334-213.334-95.708-213.334-213.334-213.334z" />
<glyph unicode="&#xe920;" glyph-name="email" d="M934 838h-844c-13.854 0-26.824-3.406-38.558-9.020l458.558-458.558 102.778 98.774c0 0 0.008 0.010 0.010 0.014s0.010 0.008 0.010 0.008l359.774 359.754c-11.736 5.618-24.714 9.028-38.572 9.028zM1014.992 786.544l-338.566-338.548 338.554-338.554c5.614 11.734 9.020 24.704 9.020 38.558v600c0 13.846-3.398 26.814-9.008 38.544zM9.020 786.558c-5.614-11.734-9.020-24.704-9.020-38.558v-600c0-13.846 3.402-26.818 9.012-38.548l338.566 338.548-338.558 338.558zM634.004 405.574l-102.792-98.786c-5.86-5.86-13.536-8.79-21.21-8.79s-15.352 2.93-21.21 8.79l-98.792 98.79-338.572-338.55c11.736-5.618 24.714-9.028 38.572-9.028h844c13.854 0 26.824 3.406 38.558 9.020l-338.554 338.554z" />
<glyph unicode="&#xe921;" glyph-name="telephone" d="M778.514 282.604c-33.454 33.028-75.219 33.028-108.46 0-25.357-25.144-50.714-50.288-75.645-75.858-6.819-7.032-12.572-8.523-20.882-3.836-16.408 8.95-33.88 16.194-49.649 25.996-73.514 46.239-135.096 105.69-189.645 172.599-27.062 33.241-51.14 68.826-67.974 108.886-3.409 8.097-2.77 13.424 3.836 20.030 25.357 24.505 50.075 49.649 75.006 74.793 34.733 34.946 34.733 75.858-0.213 111.017-19.817 20.030-39.634 39.634-59.451 59.664-20.456 20.456-40.699 41.125-61.368 61.368-33.454 32.602-75.219 32.602-108.46-0.213-25.57-25.144-50.075-50.927-76.071-75.645-24.079-22.8-36.224-50.714-38.781-83.316-4.049-53.058 8.95-103.133 27.275-151.929 37.503-101.002 94.61-190.711 163.862-272.962 93.544-111.23 205.201-199.234 335.822-262.733 58.811-28.553 119.754-50.501 186.023-54.124 45.6-2.557 85.234 8.95 116.984 44.535 21.735 24.292 46.239 46.452 69.253 69.679 34.094 34.52 34.307 76.284 0.426 110.378-40.486 40.699-81.185 81.185-121.884 121.671zM737.814 452.432l78.628 13.424c-12.359 72.236-46.452 137.653-98.232 189.645-54.763 54.763-124.015 89.283-200.3 99.937l-11.080-79.054c59.024-8.31 112.722-34.946 155.126-77.35 40.060-40.060 66.269-90.774 75.858-146.602zM860.764 794.22c-90.774 90.774-205.627 148.094-332.412 165.78l-11.080-79.054c109.526-15.342 208.823-64.991 287.238-143.193 74.367-74.367 123.163-168.337 140.849-271.683l78.628 13.424c-20.669 119.754-77.137 228.427-163.223 314.726z" />
</font>
</defs>
</svg>
